<?xml version="1.0" standalone="no"?>
<!DOCTYPE svg PUBLIC "-//W3C//DTD SVG 1.1//EN" "http://www.w3.org/Graphics/SVG/1.1/DTD/svg11.dtd" >
<svg xmlns="http://www.w3.org/2000/svg">
<metadata></metadata>
<defs>
<font id="futuracondmedium" horiz-adv-x="788" >
<font-face units-per-em="2048" ascent="1638" descent="-410" />
<missing-glyph horiz-adv-x="499" />
<glyph horiz-adv-x="0" />
<glyph unicode="&#xd;" horiz-adv-x="681" />
<glyph unicode=" "  horiz-adv-x="499" />
<glyph unicode="&#x09;" horiz-adv-x="499" />
<glyph unicode="&#xa0;" horiz-adv-x="499" />
<glyph unicode="!" horiz-adv-x="411" d="M106 96q0 45 31 78t76 35t80 -35t31 -84q-2 -45 -35 -75.5t-76 -28.5q-45 0 -76 32.5t-31 77.5zM147 420v1214h148v-1214h-148z" />
<glyph unicode="&#x22;" horiz-adv-x="612" d="M96 1632h162l-16 -483h-125zM362 1632h162l-18 -483h-127z" />
<glyph unicode="#" horiz-adv-x="1015" d="M57 567l21 113h209l47 278h-211l22 111h207l94 565h103l-96 -565h149l96 565h103l-96 -565h204l-20 -111h-201l-43 -280h197l-17 -111h-198l-84 -540h-111l92 540h-151l-90 -540h-103l90 540h-213zM387 678h152l45 280h-146z" />
<glyph unicode="$" horiz-adv-x="952" d="M100 1217q2 141 71 249.5t189 139.5l60 14v205h104v-201q31 -4 99 -18q98 -31 170 -84l-76 -113l-76 41q-86 47 -201 31q-98 -14 -151 -100.5t-43 -194.5q6 -80 63.5 -145.5t125 -102.5t154.5 -88t130 -92q88 -82 117.5 -170t19.5 -205q-10 -141 -88 -241.5t-209 -131.5 l-39 -12v-209h-104v201q-70 8 -156 47q-74 33 -135 98l86 107l45 -31q125 -84 219 -78q104 10 167 83t71 187q4 57 -11.5 107.5t-39 84.5t-74.5 73t-89 61.5t-114 65.5q-295 166 -285 422z" />
<glyph unicode="%" horiz-adv-x="1212" d="M100 1196q-14 244 58 373q37 68 125 78t127 -39q39 -45 58 -100.5t20.5 -110.5t7.5 -125q12 -289 -76 -402q-41 -51 -109.5 -53t-117.5 41q-20 18 -36 42t-25 49.5t-15 55t-9.5 60.5t-5.5 64.5t-2 66.5zM190 1253q0 -70 2.5 -119t11.5 -111t34.5 -94t66.5 -32 q57 2 81 107.5t20 236.5q-2 29 -2.5 60.5t-3.5 64.5t-7 63.5t-12 56t-20.5 44t-31 29t-40.5 8.5q-94 -10 -99 -314zM217 0l707 1628h69l-700 -1628h-76zM717 356q-16 240 59 373q37 70 123 81t127 -40q41 -47 59.5 -102.5t19.5 -109.5t5 -124q14 -291 -72 -401 q-43 -55 -111.5 -58.5t-117.5 43.5q-25 20 -41 50t-25.5 62t-14.5 70t-7 76.5t-4 79.5zM809 414q0 -70 2 -119t11 -110.5t35 -94.5t67 -31q57 2 79.5 106.5t18.5 235.5q-2 63 -3 89t-8 84.5t-18.5 85t-34 49t-55.5 18.5q-94 -4 -94 -313z" />
<glyph unicode="&#x26;" horiz-adv-x="1085" d="M92 436q4 240 193 414l43 41l-21 37q-47 90 -63.5 124.5t-38 104.5t-23.5 135q-4 133 84 236.5t217 101.5q150 -2 230 -90t78 -233q-2 -55 -17.5 -105.5t-40 -90.5t-58.5 -80t-72 -74.5t-77 -73.5l-18 -19l276 -536l113 141l100 -102l-141 -164l96 -203h-151l-51 90 l-41 -31q-106 -84 -256 -75q-162 8 -263.5 143t-97.5 309zM234.5 433q-7.5 -81 31.5 -159q53 -123 170 -150.5t203 46.5l53 43l-301 551l-35 -45q-57 -76 -85.5 -140.5t-36 -145.5zM324 1294q2 -57 14 -101t30.5 -77t43.5 -80l26 -55l56 49q124 113 151 252q16 90 -31 150.5 t-125 60.5q-74 2 -122 -59.5t-43 -139.5z" />
<glyph unicode="'" horiz-adv-x="366" d="M106 1634h162l-16 -483h-125z" />
<glyph unicode="(" horiz-adv-x="559" d="M104 817q2 244 53.5 429.5t170.5 410.5l34 67l109 -49l-55 -98q-190 -354 -191 -772q-2 -223 45 -405.5t146 -370.5l53 -101l-109 -49l-47 86q-215 385 -209 852z" />
<glyph unicode=")" horiz-adv-x="563" d="M100 -86l56 100q190 354 190 770q2 223 -45 405.5t-145 371.5l-54 102l109 47l47 -88q211 -375 209 -848q-2 -244 -53.5 -430t-169.5 -412l-35 -67z" />
<glyph unicode="*" horiz-adv-x="946" d="M106 1552l27 82l307 -100v321h86v-321l312 100l26 -84l-309 -98l190 -262l-71 -53l-191 262l-186 -260l-74 49l189 262z" />
<glyph unicode="+" horiz-adv-x="1054" d="M100 686v111h389v391h105v-391h389v-111h-389v-389h-105v389h-389z" />
<glyph unicode="," horiz-adv-x="485" d="M84 -285l168 504l151 -69l-215 -488z" />
<glyph unicode="-" horiz-adv-x="753" d="M100 647v178h541v-178h-541z" />
<glyph unicode="." horiz-adv-x="409" d="M98 104.5q0 45.5 32 79t73 33.5q45 0 76.5 -29.5t33.5 -74.5q4 -47 -29.5 -84t-78.5 -35q-45 0 -76 32.5t-31 78z" />
<glyph unicode="/" horiz-adv-x="1144" d="M100 -164l838 1942l109 -49l-836 -1942z" />
<glyph unicode="0" horiz-adv-x="923" d="M94 772q-2 90 3 197.5t14.5 204t41 196.5t83.5 174q74 106 230.5 102t221.5 -112q70 -115 99.5 -234.5t28.5 -220t3 -225.5q6 -252 -11 -402.5t-89 -308.5q-43 -96 -133 -138t-183.5 -23.5t-154.5 88.5q-158 180 -154 702zM242 782q0 -662 209 -665q53 -2 93 28.5 t63.5 93t39 128t21.5 163t7 165t1 163.5q0 76 -1 123t-7 126t-14.5 129t-27 109.5t-43 93.5t-63.5 54t-88 16q-190 -18 -190 -727z" />
<glyph unicode="1" horiz-adv-x="557" d="M80 1487l29 147h329l-2 -1636h-143v1489h-213z" />
<glyph unicode="2" horiz-adv-x="872" d="M92 0l467 987q57 119 72 252q10 131 -39 207t-170 65q-78 -6 -115 -77.5t-41 -169.5l-4 -74h-143l4 90q4 156 85 266.5t224 110.5q135 2 228.5 -74t111.5 -215q29 -221 -53 -397l-404 -836h443v-135h-666z" />
<glyph unicode="3" horiz-adv-x="868" d="M102 432v29h154v-23q0 -162 44 -234.5t149 -74.5q102 -2 147 102.5t41 241.5q-2 68 -7 112t-24.5 97t-53.5 83t-94.5 51.5t-144.5 21.5h-26v139h45q82 0 139 19.5t85 50t43 70.5t14 80t-1 79q-2 47 -9 86t-24.5 80t-53.5 63.5t-87 18.5q-84 -4 -124 -69.5t-40 -158.5v-30 h-147v43q0 152 78 252t235 102q119 0 193 -57.5t99.5 -136t29.5 -187.5q10 -248 -156 -354l-22 -13l20 -14q106 -68 142 -171t36 -261q4 -473 -323 -483q-170 -4 -263.5 106.5t-93.5 339.5z" />
<glyph unicode="4" horiz-adv-x="884" d="M92 440v164l434 1036h142v-1065h116v-135h-116v-436h-148v436h-428zM242 575h282l11 504l10 318z" />
<glyph unicode="5" horiz-adv-x="864" d="M98 72l39 143l33 -12q4 -2 31.5 -17.5t53.5 -28t61.5 -22.5t66.5 -8q113 8 171 113.5t58 240.5q0 147 -67.5 259t-184.5 112q-123 0 -210 -53l-25 -17l102 852h484v-137h-357l-65 -506l10 4q55 18 158 0q104 -20 173.5 -103t97.5 -188.5t30 -230.5q2 -197 -95.5 -343 t-273.5 -153q-141 -6 -268 78z" />
<glyph unicode="6" horiz-adv-x="870" d="M98 467q12 297 197 735l178 434h160l-318 -759l31 16q82 41 148 41q92 -2 157.5 -80t93 -182t29.5 -221q4 -201 -72.5 -332t-246.5 -139q-100 -4 -174 39.5t-113 118.5t-56.5 158t-13.5 171zM250 465q0 -354 203 -340q68 4 108.5 61.5t53 129t8.5 155.5q-8 322 -183 326 q-104 2 -147 -96.5t-43 -235.5z" />
<glyph unicode="7" horiz-adv-x="874" d="M100 0l461 1493h-461v137h668l-502 -1630h-166z" />
<glyph unicode="8" horiz-adv-x="874" d="M96 471q-2 131 47.5 255t118.5 163l33 18l-29 27q-72 59 -96.5 135t-30.5 193q-6 154 80 276.5t225 120.5q170 0 243 -111.5t77 -281.5q4 -225 -133 -338l-27 -23l25 -16q157 -113 147 -418q-4 -78 -11 -138.5t-29.5 -129t-56.5 -113.5t-94.5 -75.5t-140.5 -32.5 q-98 -2 -168.5 39.5t-107.5 116.5t-53.5 156t-18.5 177zM244 469q10 -348 196.5 -348t190.5 354q2 92 -11.5 166t-59.5 135.5t-119.5 61.5t-121 -60.5t-62.5 -138.5t-13 -170zM285 1266q-4 -74 7 -133.5t50 -105.5t107 -46q92 -2 135 83t37 198q-2 68 -16.5 122t-54.5 95 t-101 41q-150 -4 -164 -254z" />
<glyph unicode="9" horiz-adv-x="868" d="M96 1182q-4 203 72 333t246 138q131 6 217 -73t115.5 -185.5t25.5 -227.5q-6 -135 -44 -288.5t-68.5 -234.5t-84.5 -210l-180 -436h-157l317 758l-31 -15q-90 -43 -149 -41q-133 2 -204 148.5t-75 333.5zM244 1161q14 -322 184 -323q104 -2 147 95t43 236q0 354 -202 342 q-68 -4 -109 -62t-53 -130t-10 -158z" />
<glyph unicode=":" horiz-adv-x="428" d="M102 1029q0 42 30 77t81 35q70 0 99.5 -56.5t0 -111.5t-99.5 -55q-51 0 -81 34.5t-30 76.5zM115.5 53q-27.5 53 0 107.5t95.5 54.5q51 0 81 -34t30 -73.5t-30 -73.5t-81 -34q-68 0 -95.5 53z" />
<glyph unicode=";" horiz-adv-x="524" d="M92 -293l172 508l152 -70l-215 -487zM199 1027q0 42 30.5 78t84 36t84 -36t30.5 -78t-30.5 -78t-84 -36t-84 36t-30.5 78z" />
<glyph unicode="&#x3c;" horiz-adv-x="1058" d="M100 506v100l865 504v-127l-752 -422l752 -436v-125z" />
<glyph unicode="=" horiz-adv-x="1079" d="M106 330v110h879v-110h-879zM106 719v110h879v-110h-879z" />
<glyph unicode="&#x3e;" horiz-adv-x="1058" d="M96 0v125l750 436l-750 422v127l865 -504v-100z" />
<glyph unicode="?" horiz-adv-x="751" d="M100 1210v47q0 82 10.5 143.5t38 123t89 93.5t151.5 30q76 -2 127 -30t76.5 -60.5t40 -98t16.5 -104.5t2 -117q2 -82 -8 -152.5t-37.5 -138t-83 -106.5t-135.5 -39h-20v-398h-142v529h39q37 0 65.5 2t51 7t40 12.5t30 18.5t20.5 24.5t14.5 30.5t8.5 38.5t4 46.5t2 54.5 v62.5q4 45 1 95t-10.5 92t-35 69.5t-72.5 27.5q-61 0 -95 -44t-41 -92t-7 -120v-47h-140zM193 88q0 45 31.5 79t74.5 34t76 -31t35 -74q2 -47 -32 -84t-79 -35q-43 0 -74.5 33t-31.5 78z" />
<glyph unicode="@" horiz-adv-x="1830" d="M100 788q-8 358 257.5 611.5t635.5 249.5q209 -2 390.5 -105.5t282 -278.5t73.5 -372q-29 -223 -180.5 -400.5t-350.5 -173.5q-121 4 -161 91l-9 20l-14 -14q-131 -104 -287 -97q-137 6 -220 118t-68 276q23 246 175 424t380 180q164 2 239 -133l6 -8l33 92h121 l-225 -654l-7 -16q-6 -14 -11 -26.5t-10 -33t-7 -37t3 -32.5t17 -27q76 -57 181.5 8.5t186.5 201.5t97 274q27 250 -165.5 426t-473.5 182q-207 6 -389 -95.5t-286.5 -279.5t-94.5 -383q16 -305 234.5 -499.5t515.5 -184.5q373 12 587 268l23 29h129l-47 -63 q-121 -174 -305.5 -261.5t-380.5 -89.5q-375 -2 -619.5 230.5t-255.5 582.5zM566.5 734.5q-13.5 -107.5 26.5 -196.5t132 -110q74 -16 147.5 11.5t122.5 76.5q41 37 60.5 84t38.5 115l82 231q25 72 -8 147.5t-97 104.5q-111 49 -230.5 -29.5t-209.5 -238.5 q-51 -88 -64.5 -195.5z" />
<glyph unicode="A" horiz-adv-x="905" d="M63 0l324 1630h143l328 -1630h-170l-57 336h-342l-58 -336h-168zM317 469h291l-153 948z" />
<glyph unicode="B" horiz-adv-x="833" d="M109 0v1630h233q205 0 282.5 -94t88.5 -307q1 -15 0 -30q0 -241 -152 -335l-35 -22l39 -19q109 -53 147 -143t38 -227q0 -84 -5.5 -138.5t-28 -120t-62.5 -103.5t-115.5 -64.5t-182.5 -26.5h-247zM264 145h45q59 0 104.5 9.5t75 20.5t50 39t30 44t14.5 59t6 59.5t1 69.5 q0 74 -7.5 125.5t-35 103.5t-88 78.5t-156.5 26.5h-39v-635zM264 924h86q127 0 165 60t42 224v25q0 145 -43 197q-47 56 -209 55h-41v-561z" />
<glyph unicode="C" horiz-adv-x="839" d="M100 823q0 115 11.5 222.5t40 217t72.5 192.5t115 137.5t161 58.5h27q123 0 190 -33l26 -10v-166l-36 18q-74 41 -170 41q-84 -2 -142.5 -65.5t-85 -172t-38 -213t-11.5 -227.5q0 -104 3 -179t18.5 -175t41 -164.5t77 -116t122.5 -63.5q11 -2 25 -2q25 0 59 7 q53 11 92 38l50 33v-158l-35 -23q-73 -46 -180 -46q-12 0 -25 1q-408 16 -408 832v16z" />
<glyph unicode="D" horiz-adv-x="882" d="M127 0v1630h125q178 0 235.5 -9t114.5 -48q98 -68 147.5 -228.5t49.5 -488.5v-38q0 -270 -27 -429q-29 -170 -96 -246q-70 -80 -156 -111.5t-229 -31.5h-164zM279 145h53q78 0 134 27t88 75t52.5 113.5t26.5 143.5t9 164q1 37 1 74q0 50 -2 102q-1 50 -1 98t1 95v22 q-1 81 -13 153q-14 82 -42.5 142.5t-94 95.5t-163.5 35h-49v-1340z" />
<glyph unicode="E" horiz-adv-x="700" d="M129 0v1630h512v-145h-358v-561h346v-144h-346v-635h354v-145h-508z" />
<glyph unicode="F" horiz-adv-x="710" d="M123 0v1630h514v-145h-361v-561h347v-144h-347v-780h-153z" />
<glyph unicode="G" horiz-adv-x="925" d="M100 710q-1 29 -1 57.5t1 55.5q0 92 1 156.5t9.5 154t22.5 152t41 132t66 114.5t98 77.5t133 43.5q15 2 30 2q95 0 184 -66q103 -76 130 -205l10 -41l-153 -61l-8 47q-18 74 -58 126q-40 50 -101 50h-5q-47 0 -86 -25.5t-62.5 -60.5t-42 -98.5t-28 -112.5t-14.5 -131 t-6 -127t-3 -127q1 -44 1 -89.5t-1 -93.5v-26q0 -82 10 -162q13 -94 34.5 -166.5t71.5 -117.5t124 -45q98 0 134 79t36 232v283h-215v143h376v-373q0 -500 -323 -512h-17q-51 0 -97 11q-52 12 -90 36.5t-69.5 59.5t-52 79t-36 95t-22.5 106.5t-13.5 114t-6.5 117.5t-2 116z " />
<glyph unicode="H" horiz-adv-x="870" d="M106 0v1630h154v-649h361v649h153v-1630h-153v838h-361v-838h-154z" />
<glyph unicode="I" horiz-adv-x="471" d="M164 0v1630h155v-1630h-155z" />
<glyph unicode="J" horiz-adv-x="622" d="M63 25v153l19 -14q108 -58 142 -58h3q61 8 78 42t17 145v1337h151v-1292v-142.5t-14.5 -95.5t-50.5 -73q-41 -39 -106 -49q-30 -4 -57 -4q-32 0 -61 6q-51 12 -90 30z" />
<glyph unicode="K" horiz-adv-x="843" d="M131 0v1630h156v-727l325 727h164l-362 -774l360 -856h-164l-323 815v-815h-156z" />
<glyph unicode="L" horiz-adv-x="675" d="M102 0v1630h154v-1485h346v-145h-500z" />
<glyph unicode="M" horiz-adv-x="1216" d="M59 0l240 1630h131l119 -766l76 -598l84 600l137 764h135l188 -1630h-153l-88 858l-31 488l-68 -488l-153 -858h-123l-131 852l-62 498l-47 -496l-102 -854h-152z" />
<glyph unicode="N" horiz-adv-x="868" d="M98 0v1630h138l405 -1278v1278h135v-1630h-149l-400 1274v-1274h-129z" />
<glyph unicode="O" horiz-adv-x="995" d="M94 823q0 121 8.5 224.5t33 221t66.5 198.5t117.5 134.5t176.5 53.5q88 0 155.5 -35t109.5 -102.5t69.5 -141t41 -178t17.5 -185t6 -186.5v-40q0 -808 -395 -810q-129 0 -215 77t-125 213t-52.5 265.5t-13.5 290.5zM256 695.5q0 -66.5 5 -134t12.5 -130t25.5 -117 t43 -95.5t64.5 -64.5t89 -23.5t89.5 24.5t65.5 60.5t43 98.5t26.5 112.5t13 132t5 130t1 128q0 104 -3 182t-17 181.5t-39 169t-72 112.5q-45 45 -107 45h-5q-49 0 -87 -25.5t-62.5 -61.5t-43 -96t-27 -113.5t-13.5 -131.5t-6 -129t-1 -127v-127.5z" />
<glyph unicode="P" horiz-adv-x="804" d="M117 0v1630h153h73t68.5 -3t67.5 -9t67 -21.5t66 -40.5q113 -101 113 -334v-16q-2 -102 -15.5 -169.5t-53.5 -131t-121.5 -94.5t-208.5 -31h-56v-780h-153zM270 924h58q72 2 120 17t70.5 42t34.5 61.5t13 74.5t5 83q1 19 1 37q0 239 -248 246h-54v-561z" />
<glyph unicode="Q" horiz-adv-x="1009" d="M102 817q0 158 15.5 288t54.5 264t123 211q82 75 201 75h6q76 0 136 -30t100 -71t71 -116.5t46 -135t26.5 -159t14.5 -156.5t7 -160q1 -26 1 -54q0 -156 -30 -339q-34 -215 -67 -274l-14 -21l110 -182l-115 -78l-94 152l-24 -13q-63 -33 -160 -41q-14 -1 -27 -1 q-85 0 -152 44q-77 52 -120 135t-68.5 204.5t-33 227t-7.5 230.5zM264 823q0 -96 1 -154.5t8.5 -153.5t22.5 -154.5t40.5 -120t69.5 -88.5q40 -25 92 -25h8q57 6 76 20l18 13l-129 223l117 76l108 -166l6 35q16 63 34 214q14 112 14 211q0 33 -2 64q-4 61 -5.5 127 t-8.5 133.5t-16 131t-27.5 117.5t-42 95t-61.5 63.5t-85 22.5q-43 0 -77 -17t-58.5 -52t-42 -74t-28.5 -96.5t-17.5 -104.5t-9.5 -115.5t-4 -113.5t-1 -111z" />
<glyph unicode="R" horiz-adv-x="802" d="M109 0v1630h155q98 0 174 -14t123 -40t80 -61.5t45 -76.5t20 -87q7 -37 7 -75v-18q-1 -24 -1 -48t1 -47q0 -141 -64.5 -248.5t-189.5 -115.5l-49 -4l362 -795h-168l-340 793v-793h-155zM264 924h60q82 0 134 22.5t72.5 66.5t26.5 81t6 94q0 68 -4 108.5t-24.5 90 t-71.5 74t-133 24.5h-66v-561z" />
<glyph unicode="S" horiz-adv-x="909" d="M100 1229q0 168 106 297q102 125 272 125h11q106 -2 222 -72l26 -14v-197l-39 39q-82 82 -192 94q-14 2 -28 2q-84 -1 -150 -73q-70 -78 -70 -177v-16q6 -123 72.5 -198.5t204.5 -170.5l22 -16q256 -168 257 -415q0 -6 -1 -11q-2 -174 -110.5 -305t-274.5 -144 q-14 -1 -27 -1q-119 0 -221 63l-30 18v199l18 -16q129 -113 233 -113h11q227 10 241 279q1 10 1 19q0 99 -57 175q-62 84 -187 164l-35 24q-139 90 -207 189.5t-68 251.5z" />
<glyph unicode="T" horiz-adv-x="819" d="M98 1485v145h641v-145h-247v-1485h-156v1485h-238z" />
<glyph unicode="U" horiz-adv-x="878" d="M106 432v1198h154v-1198q0 -170 42 -236.5t147 -66.5q180 2 180 301v1200h153v-1200q0 -442 -333 -446h-7q-166 0 -250 97q-86 99 -86 351z" />
<glyph unicode="V" horiz-adv-x="915" d="M63 1630h158l240 -1388l237 1388h158l-338 -1630h-137z" />
<glyph unicode="W" horiz-adv-x="1351" d="M70 1630h145l174 -1327l227 1327h138l176 -1341l213 1341h151l-299 -1630h-139l-174 1358l-227 -1358h-136z" />
<glyph unicode="X" horiz-adv-x="866" d="M43 0l311 823l-299 807h162l223 -684l222 684h157l-299 -796l295 -834h-164l-211 686l-235 -686h-162z" />
<glyph unicode="Y" horiz-adv-x="872" d="M72 1630h166l219 -774l211 774h163l-296 -911l-3 -719h-151v713z" />
<glyph unicode="Z" horiz-adv-x="800" d="M63 0l447 1485h-401v145h600l-453 -1485h406v-145h-599z" />
<glyph unicode="[" horiz-adv-x="559" d="M102 -156v1880h355v-92h-230v-1691h230v-97h-355z" />
<glyph unicode="\" horiz-adv-x="862" d="M100 1692l117 41l559 -1733l-112 -47z" />
<glyph unicode="]" horiz-adv-x="565" d="M104 -59h230v1691h-230v92h355v-1880h-355v97z" />
<glyph unicode="^" horiz-adv-x="729" d="M100 1366l269 258l278 -258l-96 -96l-182 166l-179 -164z" />
<glyph unicode="_" horiz-adv-x="1320" d="M-31 -113h1374v-106h-1374v106z" />
<glyph unicode="`" horiz-adv-x="561" d="M100 1524l136 106l235 -297l-88 -61z" />
<glyph unicode="a" d="M98 571q2 117 10.5 194t33 172t82 144t145.5 49t143 -57l31 -33v72h143v-1112h-145v88l-25 -27q-57 -70 -156 -79q-14 -2 -28 -2q-70 0 -118 44q-58 52 -82 152t-30 190q-5 69 -4 153v52zM244 578q-1 -33 0 -63q0 -75 3 -133q5 -81 21 -150q18 -70 50 -103q31 -31 77 -32 q3 0 6 1q45 2 77 39t46.5 82t22.5 121t8 122v122q-1 37 -1 75v39v12q0 52 -7 102q-8 56 -22.5 101t-47.5 74t-80 29t-78.5 -40t-47 -117t-19.5 -134t-8 -147z" />
<glyph unicode="b" d="M121 0v1733h141v-693l33 33q49 57 143 57q59 0 105.5 -22.5t75 -69.5t46 -95t26.5 -120.5t11.5 -124t4.5 -127.5q0 -27 1 -53q0 -83 -6 -152q-6 -90 -30 -190t-82 -152q-48 -43 -116 -44q-14 0 -30 2q-98 10 -155 79l-23 27v-88h-145zM249 433q5 -83 16 -156.5t47 -124 t94 -54.5h6q46 0 76 31q32 33 47.5 102.5t20.5 150.5q4 58 4 133q0 30 -1 63q-2 88 -6 146t-18.5 135t-46 117t-78.5 40q-59 0 -95 -43t-46.5 -107.5t-15.5 -139.5q-4 -54 -4 -103q0 -20 1 -39q-3 -37 -3 -79q0 -34 2 -72z" />
<glyph unicode="c" horiz-adv-x="679" d="M100 571q2 100 19.5 192.5t53.5 176.5t100.5 134t148.5 50q53 0 106 -20l54 -19v-170l-33 27q-55 43 -107 47h-10q-43 -1 -78 -33q-39 -36 -60.5 -103t-32.5 -134.5t-15 -140.5q-1 -25 -1 -49q0 -173 50 -291q53 -126 131 -126q5 0 10 1q74 8 123 75l16 21v-176l-20 -15 q-61 -41 -139 -41q-92 2 -159 56.5t-101 145.5q-32 91 -46 189q-10 75 -11 155q0 24 1 48z" />
<glyph unicode="d" d="M104 571q2 76 5.5 126.5t12.5 124t27.5 121.5t47 95t74.5 69.5t106 22.5q88 0 143 -57l31 -33v693h141l2 -1733h-145v88l-25 -27q-57 -70 -155 -79q-13 -1 -26 -1q-56 1 -98 29q-52 36 -79 94t-42 146q-14 88 -18 160q-2 46 -3 98q0 30 1 63zM252 578q-1 -32 -1 -62 q0 -74 4 -133q5 -82 21 -151q18 -68 50 -102q31 -32 78 -32h6q55 4 90 54.5t46 124t15 156.5q2 42 2 79.5t-2 71.5q-1 37 -1 75v39v12q0 52 -7 102q-8 56 -21.5 101t-46 74t-80 29t-79 -40t-47 -117t-19.5 -134t-8 -147z" />
<glyph unicode="e" horiz-adv-x="796" d="M100 555q0 102 15.5 196.5t49.5 181.5t98.5 139t150.5 52q109 0 180.5 -88t95.5 -204q23 -107 23 -226v-20l-2 -68h-463v-20q0 -375 172 -387h7q58 1 92 69q36 72 36 160v33h152l-2 -33q-8 -143 -74 -250.5t-199 -112.5h-15q-317 0 -317 578zM250 641h317l-4 47 q-4 66 -9 103.5t-19.5 91t-44 79t-74.5 27.5h-5q-65 -1 -112 -103q-49 -106 -49 -212v-33z" />
<glyph unicode="f" horiz-adv-x="626" d="M102 977v133h113v225q0 66 1 102t7 94t19.5 92t40 66.5t63.5 45.5q38 15 84 15t100 -15l25 -6v-156l-16 10q-42 30 -94 30q-11 0 -23 -1q-23 -2 -37 -23.5t-19.5 -67.5t-6.5 -82t-1 -104v-225h189v-133h-189v-977h-143v977h-113z" />
<glyph unicode="g" horiz-adv-x="804" d="M100 559.5q0 108.5 10.5 193.5t37 176t87 141t150.5 50q88 0 141 -55l33 -35v82h141v-1210q0 -193 -71 -281q-66 -80 -215.5 -80t-227.5 97q-39 49 -49 99t-10 134v25h139v-29q0 -188 154 -189q78 2 108.5 52.5t30.5 171.5v159l-20 -18q-70 -55 -162 -55q-88 0 -147.5 51 t-85 144t-35 180.5t-9.5 196zM248 567v-36q0 -122 12 -211q14 -101 53 -160q37 -56 95 -56h8q59 4 96 53.5t46 118t14 148.5q2 37 2 72q0 41 -3 79q1 19 1 39q0 50 -4 104q-5 75 -14 138.5t-45 105.5t-95 44h-5q-46 0 -78 -39q-34 -41 -51.5 -112t-24.5 -139.5t-7 -148.5z " />
<glyph unicode="h" horiz-adv-x="768" d="M111 0v1733h143v-707l31 33q47 47 121 65q40 10 75 10q92 0 152 -67q29 -31 42 -88q11 -46 11 -81q0 -8 -1 -16q-2 -24 -2 -43q0 -12 1 -22v-817h-141v815v29.5t-2 37t-5.5 39t-13.5 37t-23.5 30.5t-36 21.5t-50.5 6.5q-82 -4 -120 -85t-38 -188v-743h-143z" />
<glyph unicode="i" horiz-adv-x="503" d="M170 1386q-13 26 -14 52q0 27 14 53q27 53 94 53q49 0 77 -32.5t28 -72.5t-28 -73t-77 -33q-68 1 -94 53zM186 0v1112h144v-1112h-144z" />
<glyph unicode="j" horiz-adv-x="544" d="M180 1386q-13 26 -13 52t13 53q27 53 94 53q49 0 77 -32.5t28 -72.5t-28 -73t-77 -33q-68 0 -94 53zM199 -420v1532h143v-1532h-143z" />
<glyph unicode="k" horiz-adv-x="827" d="M143 0v1733h144v-1065l270 444h166l-332 -498l412 -614h-176l-340 526v-526h-144z" />
<glyph unicode="l" horiz-adv-x="436" d="M152 0v1733h141v-1733h-141z" />
<glyph unicode="m" horiz-adv-x="1216" d="M104 0v1112h144v-88l16 14q74 63 113 78q42 17 85 17q49 0 101 -21q51 -23 90 -84l13 -20l12 12q78 78 115 92q49 19 100 19q21 1 43 -3q74 -12 106 -45q35 -35 52.5 -91t19.5 -95t2 -125v-772h-141v772v44.5t-2 44t-5 43t-10.5 37.5t-18.5 31.5t-29.5 25t-41.5 14.5 q-14 2 -27 2q-51 0 -87 -39q-44 -49 -58 -114.5t-14 -145.5v-715h-141v715q-1 15 -1 32q0 33 3 73q1 8 1 17q0 52 -22 104q-24 60 -80 71q-17 4 -33 4q-72 0 -112 -75q-49 -91 -49 -212v-729h-144z" />
<glyph unicode="n" horiz-adv-x="768" d="M98 0v1112h144v-88l14 14q49 53 115 78q47 18 92 18q47 0 92 -20q37 -16 62.5 -47t36 -71t16.5 -87q4 -35 5 -72q0 -12 -1 -24q-1 -24 -1 -48.5t1 -49.5v-715h-139v715q1 13 1 30q0 21 -2 48q-2 49 -6 95t-27.5 85t-64.5 45q-17 3 -33 3q-75 0 -114 -70q-47 -85 -47 -222 v-729h-144z" />
<glyph unicode="o" horiz-adv-x="823" d="M90 555q0 106 14.5 199.5t46 181.5t98 140t159.5 52q315 0 319 -565v-37q0 -64 -5 -122q-7 -76 -27.5 -156t-54.5 -137.5t-91 -94t-133 -39.5q-98 0 -166 51.5t-100.5 142.5t-46 183t-13.5 201zM238 549q4 -432 174 -434h5q48 0 82 41q36 43 52 114.5t22.5 142t6.5 150.5 q-2 90 -7.5 145.5t-20.5 130t-51 113.5t-91 41h-5q-46 0 -81 -39q-37 -41 -54.5 -111.5t-24.5 -143t-7 -150.5z" />
<glyph unicode="p" d="M125 -418v1530h145v-74l23 27q57 66 156 76q14 2 28 2q69 0 117 -43q57 -51 80.5 -150.5t31.5 -190.5q5 -72 5 -157v-47q-2 -76 -4 -127t-11.5 -125t-28 -123t-46 -96t-73.5 -69.5t-108 -22.5q-90 0 -141 57l-33 33v-500h-141zM253 660q1 -64 1 -121q-1 -19 -1 -39 q0 -50 4 -104q5 -74 14.5 -138.5t45 -108t95.5 -43.5q39 0 67.5 31t44 71t24.5 107.5t11 114.5t4 117q2 50 2 94q0 55 -3 101q-5 81 -20.5 151t-49.5 103q-29 30 -72 30h-10q-47 -4 -79 -38t-46.5 -86t-23.5 -116q-8 -57 -8 -114v-12z" />
<glyph unicode="q" d="M106 555v47q0 85 6 157q7 91 30.5 190.5t81.5 150.5q49 43 119 43q14 0 28 -2q98 -10 155 -76l25 -27v74h145l2 -1530h-145v500l-31 -33q-57 -57 -143 -57q-88 0 -145.5 49t-83 146.5t-33.5 173t-11 194.5zM254 547q2 -74 5 -118t12.5 -113.5t24.5 -108.5t44 -70t68 -31 q47 0 79.5 29t46 74t21.5 101q7 51 7 103v13v38q0 38 1 75q2 35 2 73t-2 80q-4 82 -15 155t-46 124t-90 55h-11q-44 0 -74 -30q-34 -33 -49.5 -103t-20.5 -152q-4 -59 -4 -132q0 -30 1 -62z" />
<glyph unicode="r" horiz-adv-x="528" d="M117 0v1112h143v-143l10 12q8 12 28.5 44t35.5 48q41 49 98 53l25 4v-169l-21 4q-7 1 -14 1q-48 0 -94 -36q-29 -23 -48.5 -101.5t-19.5 -171.5v-657h-143z" />
<glyph unicode="s" horiz-adv-x="708" d="M109 59v164l24 -20q18 -14 32.5 -26.5t31 -24t32 -19.5t35 -12t39.5 -4q76 0 121 46t45 134q0 45 -25.5 90t-58.5 73.5t-66 61.5l-26 25q-20 20 -44 39.5t-47.5 46t-42 53.5t-29.5 61.5t-13 69.5v15q0 110 54 193q58 89 173 101q21 3 42 3q87 0 169 -48l29 -16v-184 l-27 26q-35 35 -49 47.5t-44 27.5t-63 15q-127 0 -141 -141q-1 -8 -1 -17q1 -29 11 -55q14 -34 37 -60t51.5 -51.5t53.5 -43.5l24 -21q29 -25 55.5 -50.5t48 -48t38 -52t26.5 -66.5q13 -46 13 -91q-1 -88 -49 -173q-72 -127 -212 -141q-16 -2 -32 -2q-89 0 -185 57z" />
<glyph unicode="t" horiz-adv-x="632" d="M111 977v133h120v299h142v-297h182v-135h-182v-977h-142v977h-120z" />
<glyph unicode="u" horiz-adv-x="770" d="M100 309v803h142v-713q0 -43 1 -65.5t4 -62.5t13 -62.5t24.5 -47t41 -35.5t61.5 -11q49 0 82 24.5t45 72.5t16.5 88t4.5 99v713h141v-807q0 -315 -279 -325h-10q-287 0 -287 329z" />
<glyph unicode="v" horiz-adv-x="745" d="M53 1112h144l182 -907l174 907h145l-243 -1112h-154z" />
<glyph unicode="w" horiz-adv-x="1150" d="M63 1112h144l155 -907l142 907h147l137 -905l168 905h144l-234 -1112h-147l-150 920l-137 -920h-143z" />
<glyph unicode="x" horiz-adv-x="772" d="M61 0l265 571l-265 541h156l189 -469l157 469h162l-242 -541l242 -571h-154l-165 481l-191 -481h-154z" />
<glyph unicode="y" horiz-adv-x="784" d="M66 1112h143l197 -897l188 897h151l-389 -1532h-143l106 459z" />
<glyph unicode="z" horiz-adv-x="786" d="M61 0l441 983h-373v129h588l-449 -981h369v-131h-576z" />
<glyph unicode="{" horiz-adv-x="694" d="M96 766v78l33 8q76 18 115 66q31 35 30 120v389q0 141 56 203q66 74 225 74h39v-78h-25q-80 0 -127 -49q-39 -45 -39 -139v-328q0 -131 -43 -209q-27 -47 -90 -78l-32 -18l36 -19q41 -20 72 -55q51 -59 51 -209v-344q0 -102 49 -151q51 -51 123 -52h25v-75h-27 q-84 0 -134 12t-97 59q-66 70 -66 246v338q0 96 -26 133q-43 57 -115 70z" />
<glyph unicode="|" horiz-adv-x="358" d="M106 -416v2050h142v-2050h-142z" />
<glyph unicode="}" horiz-adv-x="700" d="M102 -29h27q72 0 121 49.5t49 153.5v342q0 150 53 209q23 33 70 57l39 17l-35 18q-66 37 -90 80q-41 76 -41 207v330q0 92 -41 137q-49 51 -125 51h-27v76h39q160 0 228 -72q53 -61 53 -205v-387q0 -86 33 -123q39 -47 114 -65l33 -6v-80l-33 -6q-78 -16 -114 -72 q-29 -39 -29 -131v-338q0 -180 -66 -248q-43 -45 -95 -57t-136 -12h-27v75z" />
<glyph unicode="~" horiz-adv-x="872" d="M94 1483l19 24q39 57 75.5 87t92.5 36q59 6 171.5 -43t157.5 -47q43 2 107 78l16 22l58 -57l-29 -39q-72 -96 -152 -100q-61 -2 -163.5 43t-153.5 45q-45 0 -74 -28.5t-51 -63.5l-16 -17z" />
<glyph unicode="&#xa1;" horiz-adv-x="411" d="M104 1124q0 43 31 75t74 34q45 2 76.5 -30t36 -77t-31.5 -80.5t-81 -35.5q-45 2 -76 35.5t-29 78.5zM145 -416v1215h148v-1215h-148z" />
<glyph unicode="&#xa2;" horiz-adv-x="679" d="M100 899q12 453 236 535l26 6v196h107v-190l10 -2q10 -2 28.5 -6t22.5 -6q16 -6 39 -23l13 -4v-160l-33 25q-43 43 -108.5 47t-110.5 -65.5t-61.5 -154.5t-22.5 -190q-10 -219 46 -347t142 -120q70 4 125 80l16 19l-2 -183l-18 -10q-12 -12 -35 -18q-27 -10 -39 -15 l-14 -2v-215h-111v213l-24 13q-80 35 -131 98t-71.5 150t-26 160t-3.5 169z" />
<glyph unicode="&#xa3;" horiz-adv-x="946" d="M94 82l10 22q4 8 16.5 28t40 51.5t52.5 47.5q57 35 113 25l14 -2l12 16q47 68 54 189q4 86 -56 190l-6 13h-227v104h168l-11 18q-51 98 -98 207t-49 215q-4 158 63.5 279t200.5 155q190 49 328 -69q55 -49 89 -136t28 -126l-5 -23l-147 -26v26q0 82 -41 147.5t-129 79.5 q-100 16 -166.5 -56.5t-75.5 -205.5q-2 -78 15.5 -142.5t56.5 -135t98 -180.5l15 -27h258v-104h-205l8 -21q31 -74 33 -149q2 -74 -25.5 -158t-54.5 -111l-10 -12l10 -8q139 -109 186 -103q33 2 51.5 36t20.5 65l2 28l127 -39l-2 -20q-8 -84 -68.5 -152.5t-146.5 -60.5 q-63 4 -119.5 38t-101.5 69.5t-76 41.5q-33 8 -57.5 -5t-34.5 -28.5t-29 -49.5l-6 -15z" />
<glyph unicode="&#xa5;" horiz-adv-x="1001" d="M119 1630h166l219 -774l213 774h162l-127 -393q-127 -391 -129 -391h274v-111h-309l-4 -16q0 -168 -2 -168h315v-111h-313l-2 -440h-154v440h-289v111h289v162l-8 22h-281v111h244z" />
<glyph unicode="&#xa7;" horiz-adv-x="901" d="M106 567q-4 162 58.5 272.5t179.5 147.5l37 10l-25 13q-102 61 -151 128.5t-49 176.5q0 143 87 241.5t234 96.5q74 -2 133.5 -32t90 -74t46 -76.5t21.5 -57.5l8 -49h-141l-10 39q-8 41 -46 75.5t-90 43.5q-100 10 -150 -55.5t-44 -157.5q2 -53 18.5 -91t59.5 -73 t70.5 -50.5t101.5 -56.5l18 -12q102 -57 174 -157.5t74 -209.5q2 -190 -42 -293.5t-153 -162.5l-16 -8l21 -17q43 -33 69.5 -62.5t50 -92t23.5 -142.5q0 -139 -91 -234.5t-229 -95.5q-74 0 -134 34t-93 80t-49 86t-16 61v51h141l6 -39q4 -49 33.5 -91t95.5 -52 q96 -12 153.5 53t53.5 153q-6 102 -63.5 157.5t-182.5 117.5l-41 22q-102 49 -170.5 147.5t-71.5 235.5zM248 600q-2 -80 30.5 -148.5t78.5 -107.5t89 -59.5t64 -14.5q152 45 158 301q4 70 -17.5 149t-77 141.5t-133.5 53.5q-96 -10 -141 -99t-51 -216z" />
<glyph unicode="&#xa8;" horiz-adv-x="770" d="M102 1485q0 45 33 78.5t76 33.5q45 0 77 -30.5t34 -75.5q2 -47 -32 -82t-79 -35q-43 2 -75 34t-34 77zM469 1485q0 45 31.5 78.5t74.5 33.5q45 0 77 -30.5t34 -75.5q4 -47 -29.5 -82t-78.5 -35q-45 2 -77 34t-32 77z" />
<glyph unicode="&#xa9;" horiz-adv-x="1781" d="M96 814.5q0 150.5 51.5 293.5t147.5 255t251.5 180.5t348 68.5t348.5 -68.5t251 -180.5t147.5 -255t52.5 -293.5t-52.5 -294t-147.5 -255t-251 -180.5t-348.5 -69t-348 69t-251.5 180.5t-147.5 255t-51.5 294zM182 813q0 -184 76 -343t243 -264.5t394 -105.5t393 105.5 t241 264.5t75 343t-75 343t-241 264.5t-393 105.5t-394 -105.5t-243 -264.5t-76 -343zM477 809q-2 133 44 247.5t144.5 189.5t233.5 71q143 -4 246.5 -75t124.5 -198l8 -34h-96l-6 28q-20 92 -100.5 144.5t-176.5 48.5q-115 -2 -191.5 -66.5t-106.5 -153.5t-30 -200 q0 -66 6.5 -118t26 -106.5t52 -92t89 -65.5t132.5 -36q106 -12 199 65t116 193h96q-29 -158 -143.5 -253t-274.5 -85q-141 8 -233 83t-126 177.5t-34 235.5z" />
<glyph unicode="&#xaa;" horiz-adv-x="614" d="M111 1298q2 51 4 85t8 84.5t18.5 82t30.5 63.5t49 46t72 14q57 0 94 -37l23 -22v49h94v-745h-96v59l-19 -19q-35 -47 -102 -53q-59 -6 -98 29t-54.5 101.5t-20.5 127t-3 135.5zM129 795h391v67h-391v-67zM209 1303q-4 -158 17.5 -241t86.5 -81q37 2 60.5 34t32 90 t10.5 99.5t0 104.5q2 45 -1 95t-10.5 93t-31 71.5t-62.5 28.5q-27 0 -46 -20.5t-28.5 -47t-16.5 -73.5t-8 -75.5t-3 -77.5z" />
<glyph unicode="&#xab;" horiz-adv-x="1236" d="M100 516v229l465 345v-226l-327 -237l321 -230v-239zM684 516v229l467 345v-226l-332 -237l326 -230v-239z" />
<glyph unicode="&#xac;" horiz-adv-x="1789" d="M96 557v123h1596v-680h-131v557h-1465z" />
<glyph unicode="&#xad;" horiz-adv-x="753" d="M100 647v178h541v-178h-541z" />
<glyph unicode="&#xae;" horiz-adv-x="1794" d="M102 814.5q0 150.5 51.5 293.5t147.5 255t252 180.5t348.5 68.5t348 -68.5t250.5 -180.5t147.5 -255t52.5 -293.5t-52.5 -294t-147.5 -255t-250.5 -180.5t-348 -69t-348.5 69t-252 180.5t-147.5 255t-51.5 294zM188 813q0 -133 46.5 -261t131.5 -228.5t224 -162 t311 -61.5t311.5 61.5t224.5 162t131 228.5t46 261t-46 261t-131 228.5t-224.5 162t-311.5 61.5t-311 -61.5t-224 -162t-131.5 -228.5t-46.5 -261zM580 326v956h350q150 0 245 -52t105 -198q14 -160 -158 -237q72 -39 92 -78q33 -63 28 -171t20 -186q4 -11 22 -34h-102h-6 q-23 45 -22 137t-12.5 167t-70.5 105q-23 12 -47.5 17.5t-46 4.5t-51.5 -1h-254v-430h-92zM672 840h268q70 0 121 12t90 55t37 113q-4 182 -242 182h-274v-362z" />
<glyph unicode="&#xb0;" horiz-adv-x="520" d="M96 1463.5q0 62.5 44 113.5t122 51t122 -51t44 -113.5t-44 -114t-122 -51.5t-122 51.5t-44 114zM176.5 1418q24.5 -48 85.5 -48q59 0 84 48t0.5 96.5t-84.5 48.5q-61 0 -85.5 -48.5t0 -96.5z" />
<glyph unicode="&#xb1;" horiz-adv-x="1054" d="M86 -4v86h889v-86h-889zM100 655v111h389v391h105v-391h389v-111h-389v-389h-105v389h-389z" />
<glyph unicode="&#xb4;" horiz-adv-x="548" d="M104 1333l238 297l135 -106l-282 -252z" />
<glyph unicode="&#xb6;" horiz-adv-x="1024" d="M96 1257q0 168 101.5 270.5t304.5 102.5h424v-2046h-115v1944h-164v-1944h-104v1301l-74 6q-168 10 -269.5 111.5t-103.5 254.5z" />
<glyph unicode="&#xb7;" horiz-adv-x="409" d="M98 793q0 45 32 78.5t73 33.5q45 0 76.5 -29.5t33.5 -74.5q4 -47 -29.5 -84t-78.5 -35q-45 0 -76 33t-31 78z" />
<glyph unicode="&#xba;" horiz-adv-x="632" d="M100 1288.5q0 71.5 9.5 132t31 119.5t65.5 93t105 34q207 0 211 -373q2 -96 -12 -177t-63.5 -145.5t-129.5 -64.5q-66 0 -110.5 34t-66 94.5t-31 121t-9.5 132zM129 795h391v67h-391v-67zM199 1284q4 -285 114 -285q35 -2 58.5 26t35 76t14.5 94t3 99q0 57 -4 95 t-14.5 87.5t-34 75t-60.5 27.5q-63 2 -88.5 -88t-23.5 -207z" />
<glyph unicode="&#xbb;" horiz-adv-x="1245" d="M98 864v226l465 -345v-229l-459 -358v239l324 230zM682 864v226l467 -345v-229l-459 -358v239l322 230z" />
<glyph unicode="&#xbf;" horiz-adv-x="751" d="M100 -10q-4 440 265 440h20v395h141v-526h-37q-53 0 -90 -5t-62.5 -15.5t-40.5 -26.5t-24.5 -40t-12.5 -54.5t-5 -69.5t-2 -88q-4 -45 -1 -95t11 -92t36 -70t73 -28q143 0 143 254v49h139v-49q0 -80 -10 -141t-39 -122.5t-90 -94.5t-152 -31q-76 2 -127 30t-76.5 60.5 t-40 98t-16.5 104.5t-2 117zM344 1135q-4 47 30 81.5t79 34.5t75.5 -31.5t30.5 -76.5q2 -45 -30.5 -79t-73.5 -34q-45 0 -77 30t-34 75z" />
<glyph unicode="&#xc0;" horiz-adv-x="917" d="M63 0l324 1630h143l328 -1630h-170l-57 336h-342l-58 -336h-168zM285 1991l135 106l235 -297l-88 -61zM317 469h291l-153 948z" />
<glyph unicode="&#xc1;" horiz-adv-x="927" d="M63 0l324 1630h143l328 -1630h-170l-57 336h-342l-58 -336h-168zM289 1802l237 297l136 -106l-283 -252zM317 469h291l-153 948z" />
<glyph unicode="&#xc2;" horiz-adv-x="927" d="M63 0l324 1630h143l328 -1630h-170l-57 336h-342l-58 -336h-168zM193 1835l268 258l278 -258l-96 -96l-182 166l-178 -164zM317 469h291l-153 948z" />
<glyph unicode="&#xc3;" horiz-adv-x="911" d="M63 0l324 1630h143l328 -1630h-170l-57 336h-342l-58 -336h-168zM158 1798l18 21q66 100 146 106q51 6 148 -37t134 -41q47 2 92 70l15 18l49 -49l-25 -35q-66 -82 -131 -86q-53 -2 -141 37t-133 39q-37 0 -62.5 -25.5t-44.5 -54.5l-14 -14zM317 469h291l-153 948z" />
<glyph unicode="&#xc4;" horiz-adv-x="886" d="M43 0l324 1630h143l328 -1630h-170l-58 336h-342l-57 -336h-168zM160 1849q0 45 32.5 79t75.5 34q45 0 77 -31t34 -76q2 -47 -32 -81.5t-79 -34.5q-43 2 -74.5 33.5t-33.5 76.5zM297 469h289l-152 948zM526 1849q0 45 32 79t75 34q45 0 76.5 -31t33.5 -76 q4 -47 -29.5 -81.5t-78.5 -34.5q-45 2 -77 33.5t-32 76.5z" />
<glyph unicode="&#xc5;" horiz-adv-x="919" d="M63 0l324 1630h143l328 -1630h-170l-57 336h-342l-58 -336h-168zM293 1891.5q0 62.5 44 113.5t122 51t122 -51t44 -113.5t-44 -114t-122 -51.5t-122 51.5t-44 114zM317 469h291l-153 948zM373 1846q25 -48 86 -48q59 0 83.5 48t0 96.5t-83.5 48.5q-61 0 -86 -48.5 t0 -96.5z" />
<glyph unicode="&#xc6;" horiz-adv-x="1323" d="M66 0l612 1630h528v-141h-360v-574h346v-145h-346v-635h354v-137l-508 2v336h-342l-117 -336h-167zM403 469h291v807z" />
<glyph unicode="&#xc7;" horiz-adv-x="849" d="M104 811q0 115 12.5 222.5t41 218t72.5 192.5t115 136t161 58q141 4 217 -30l27 -13v-163l-37 16q-78 43 -170 43q-84 -2 -142.5 -65.5t-85 -172t-38 -214t-11.5 -228.5q0 -86 2 -148.5t10.5 -147.5t26 -145.5t45 -118.5t72.5 -93t104 -45q90 -14 179 43l49 32v-157 l-35 -21q-88 -53 -205 -47q-414 18 -410 848zM311 -506l135 406l123 -56l-172 -393z" />
<glyph unicode="&#xc8;" horiz-adv-x="768" d="M129 0v1630h512v-145h-358v-561h346v-144h-346v-635h354v-145h-508zM227 1993l135 106l236 -297l-88 -61z" />
<glyph unicode="&#xc9;" horiz-adv-x="700" d="M129 0v1630h512v-145h-358v-561h346v-144h-346v-635h354v-145h-508zM172 1800l238 297l135 -106l-283 -252z" />
<glyph unicode="&#xca;" horiz-adv-x="755" d="M100 1835l269 258l278 -258l-96 -96l-182 166l-179 -164zM129 0v1630h512v-145h-358v-561h346v-144h-346v-635h354v-145h-508z" />
<glyph unicode="&#xcb;" horiz-adv-x="768" d="M90 1851q0 45 33 79t76 34q45 0 76.5 -30.5t33.5 -75.5q2 -47 -31.5 -82t-78.5 -35q-43 2 -75 33.5t-34 76.5zM129 0v1630h512v-145h-358v-561h346v-144h-346v-635h354v-145h-508zM457 1851q0 45 31.5 79t74.5 34q45 0 77 -30.5t34 -75.5q4 -47 -30 -82t-79 -35 q-45 2 -76.5 33.5t-31.5 76.5z" />
<glyph unicode="&#xcc;" horiz-adv-x="481" d="M66 1993l135 106l235 -297l-88 -61zM164 0v1630h155v-1630h-155z" />
<glyph unicode="&#xcd;" horiz-adv-x="481" d="M59 1802l238 297l135 -106l-282 -252zM164 0v1630h155v-1630h-155z" />
<glyph unicode="&#xce;" horiz-adv-x="503" d="M-14 1835l268 258l278 -258l-96 -96l-182 166l-178 -164zM164 0v1630h155v-1630h-155z" />
<glyph unicode="&#xcf;" horiz-adv-x="493" d="M-47 1851q0 45 32.5 79t75.5 34q45 0 77 -30.5t34 -75.5q2 -47 -32 -82t-79 -35q-43 2 -74.5 33.5t-33.5 76.5zM164 0v1630h155v-1630h-155zM319 1851q0 45 32 79t75 34q45 0 77 -30.5t34 -75.5q4 -47 -30 -82t-79 -35q-45 2 -77 33.5t-32 76.5z" />
<glyph unicode="&#xd1;" horiz-adv-x="759" d="M80 1798l18 23q68 100 144 106q55 6 152.5 -38t135.5 -42q37 2 95 70l14 20l51 -49l-24 -37q-68 -82 -136 -86q-53 -2 -142 37t-134 39q-41 0 -65.5 -25.5t-43.5 -54.5l-16 -14zM113 0v1630h514v-145h-359v-561h344v-144h-344v-635h353v-145h-508z" />
<glyph unicode="&#xd2;" horiz-adv-x="985" d="M94 823q0 121 8.5 224.5t33 221t66.5 198.5t117.5 134.5t176.5 53.5q88 0 155.5 -35t109.5 -102.5t69.5 -141t41 -178t17.5 -185t6 -186.5q10 -848 -395 -850q-129 0 -215 77t-125 213t-52.5 265.5t-13.5 290.5zM256 695.5q0 -66.5 5 -134t12.5 -130t25.5 -117t43 -95.5 t64.5 -64.5t89 -23.5t89.5 24.5t65.5 60.5t43 98.5t26.5 112.5t13 132t5 130t1 128q0 104 -3 182t-17 181.5t-39 169t-72 112.5t-112 45q-49 0 -87 -25.5t-62.5 -61.5t-43 -96t-27 -113.5t-13.5 -131.5t-6 -129t-1 -127v-127.5zM342 1993l135 106l236 -297l-88 -61z" />
<glyph unicode="&#xd3;" horiz-adv-x="985" d="M94 823q0 121 8.5 224.5t33 221t66.5 198.5t117.5 134.5t176.5 53.5q88 0 155.5 -35t109.5 -102.5t69.5 -141t41 -178t17.5 -185t6 -186.5q10 -848 -395 -850q-129 0 -215 77t-125 213t-52.5 265.5t-13.5 290.5zM256 695.5q0 -66.5 5 -134t12.5 -130t25.5 -117t43 -95.5 t64.5 -64.5t89 -23.5t89.5 24.5t65.5 60.5t43 98.5t26.5 112.5t13 132t5 130t1 128q0 104 -3 182t-17 181.5t-39 169t-72 112.5t-112 45q-49 0 -87 -25.5t-62.5 -61.5t-43 -96t-27 -113.5t-13.5 -131.5t-6 -129t-1 -127v-127.5zM356 1802l238 297l135 -106l-283 -252z" />
<glyph unicode="&#xd4;" horiz-adv-x="985" d="M94 823q0 121 8.5 224.5t33 221t66.5 198.5t117.5 134.5t176.5 53.5q88 0 155.5 -35t109.5 -102.5t69.5 -141t41 -178t17.5 -185t6 -186.5q10 -848 -395 -850q-129 0 -215 77t-125 213t-52.5 265.5t-13.5 290.5zM250 1835l268 258l279 -258l-97 -96l-182 166l-178 -164z M256 695.5q0 -66.5 5 -134t12.5 -130t25.5 -117t43 -95.5t64.5 -64.5t89 -23.5t89.5 24.5t65.5 60.5t43 98.5t26.5 112.5t13 132t5 130t1 128q0 104 -3 182t-17 181.5t-39 169t-72 112.5t-112 45q-49 0 -87 -25.5t-62.5 -61.5t-43 -96t-27 -113.5t-13.5 -131.5t-6 -129 t-1 -127v-127.5z" />
<glyph unicode="&#xd5;" horiz-adv-x="997" d="M94 823q0 121 8.5 224.5t33 221t66.5 198.5t117.5 134.5t176.5 53.5q88 0 155.5 -35t109.5 -102.5t69.5 -141t41 -178t17.5 -185t6 -186.5q10 -848 -395 -850q-129 0 -215 77t-125 213t-52.5 265.5t-13.5 290.5zM195 1794l18 23q68 100 143 106q55 6 152.5 -38t136.5 -42 q37 2 94 70l15 20l51 -49l-25 -37q-68 -82 -135 -86q-53 -2 -142 37t-134 39q-41 0 -65.5 -25.5t-43.5 -54.5l-16 -14zM256 695.5q0 -66.5 5 -134t12.5 -130t25.5 -117t43 -95.5t64.5 -64.5t89 -23.5t89.5 24.5t65.5 60.5t43 98.5t26.5 112.5t13 132t5 130t1 128 q0 104 -3 182t-17 181.5t-39 169t-72 112.5t-112 45q-49 0 -87 -25.5t-62.5 -61.5t-43 -96t-27 -113.5t-13.5 -131.5t-6 -129t-1 -127v-127.5z" />
<glyph unicode="&#xd6;" horiz-adv-x="991" d="M84 823q0 121 8 224.5t33 221t66.5 198.5t117.5 134.5t176 53.5q88 0 156 -35t110 -102.5t69.5 -141t40.5 -178t17.5 -185t6.5 -186.5q14 -848 -393 -850q-88 0 -157 36t-112 102.5t-71.5 145.5t-43 181.5t-19.5 190.5t-5 190zM207 1849q0 45 31.5 79t74.5 34 q45 0 77 -31t34 -76q2 -47 -31 -81.5t-80 -34.5q-43 2 -73.5 33.5t-32.5 76.5zM246 695.5q0 -66.5 5 -134t12 -130t25.5 -117t43 -95.5t64.5 -64.5t89.5 -23.5t89 24.5t65.5 60.5t43 98.5t26.5 112.5t13.5 132t5 130t1 128q0 104 -3 182t-17.5 181.5t-39 169t-71.5 112.5 t-113 45q-49 0 -87 -25.5t-62.5 -61.5t-43 -96t-26.5 -113.5t-13 -131.5t-6 -129t-1 -127v-127.5zM573 1849q-2 45 30 79t75 34q45 0 76.5 -31t33.5 -76q4 -47 -29.5 -81.5t-78.5 -34.5q-45 2 -76 33.5t-31 76.5z" />
<glyph unicode="&#xd8;" horiz-adv-x="1069" d="M66 23l118 247q-68 203 -63 553q0 121 8 224.5t32.5 221t66.5 198.5t118 134.5t176 53.5q168 0 260 -131l66 139l102 -41l-53 -106q-51 -109 -51 -111q72 -186 76 -578q10 -848 -396 -850q-182 0 -282 162l-74 -155zM283 823q-4 -199 10 -325l409 860q-59 152 -180 149 q-49 0 -87 -25.5t-62.5 -61.5t-43 -96t-26.5 -113.5t-13 -131.5t-6 -129t-1 -127zM328 311q55 -180 194 -180q49 0 89 24.5t65.5 60.5t43 98.5t27 112.5t13.5 132t5 130t1 128q0 238 -21 375z" />
<glyph unicode="&#xd9;" horiz-adv-x="882" d="M106 432v1198h154v-1198q0 -170 42 -236.5t147 -66.5q180 2 180 301v1200h153v-1200q0 -442 -333 -446q-172 -2 -257.5 97t-85.5 351zM272 1993l136 106l235 -297l-88 -61z" />
<glyph unicode="&#xda;" horiz-adv-x="882" d="M106 432v1198h154v-1198q0 -170 42 -236.5t147 -66.5q180 2 180 301v1200h153v-1200q0 -442 -333 -446q-172 -2 -257.5 97t-85.5 351zM264 1802l238 297l135 -106l-283 -252z" />
<glyph unicode="&#xdb;" horiz-adv-x="905" d="M106 432v1198h154v-1198q0 -170 42 -236.5t147 -66.5q180 2 180 301v1200h153v-1200q0 -442 -333 -446q-172 -2 -257.5 97t-85.5 351zM193 1835l268 258l278 -258l-96 -96l-182 166l-178 -164z" />
<glyph unicode="&#xdc;" horiz-adv-x="874" d="M106 432v1198h154v-1198q0 -170 42 -236.5t147 -66.5q180 2 180 301v1200h153v-1200q0 -442 -333 -446q-172 -2 -257.5 97t-85.5 351zM158 1847q0 45 32.5 79t75.5 34q45 0 77 -31t34 -76q2 -47 -32 -81.5t-79 -34.5q-43 2 -74.5 33.5t-33.5 76.5zM524 1847q0 45 32 79 t75 34q45 0 76.5 -31t33.5 -76q4 -47 -29.5 -81.5t-78.5 -34.5q-45 2 -77 33.5t-32 76.5z" />
<glyph unicode="&#xdf;" horiz-adv-x="878" d="M96 936v133h109v137q-4 14 0 75.5t10 131.5t41 138.5t92 95.5q53 33 142.5 31.5t162.5 -46.5q129 -82 125 -338q-4 -18 -5 -63t-30.5 -111.5t-80.5 -99.5l-33 -21l28 -18q134 -78 134 -426q4 -16 0.5 -63.5t-4.5 -108.5t-20 -129t-48 -124t-86.5 -93t-134.5 -37h-64v125 l37 2q35 0 51.5 3t45 24.5t43 62.5t26.5 125t14 207q2 111 -10 187.5t-27.5 114.5t-45 58.5t-49 23.5t-52.5 3h-23v131h23q125 0 151 86q51 188 -22 336q-31 45 -81 58.5t-93 -13.5q-45 -27 -60.5 -97.5t-15.5 -240.5v-1196h-141v936h-109z" />
<glyph unicode="&#xe0;" horiz-adv-x="776" d="M70 571q2 117 10 194t32.5 172t82 144t145.5 49t143 -57l31 -33v72h143v-1112h-145v88l-25 -27q-57 -70 -155 -79q-88 -10 -146.5 42t-82 152t-29.5 190.5t-4 204.5zM215 578q-2 -115 3 -196t21.5 -150.5t49.5 -102.5t84 -31q45 2 76.5 39t46 82t22.5 121t8 122v122 q-2 55 -1 113.5t-7 114.5t-22.5 101t-47 74t-79.5 29t-79 -40t-47.5 -117t-19.5 -134t-8 -147zM262 1524l135 106l238 -297l-90 -61z" />
<glyph unicode="&#xe1;" horiz-adv-x="776" d="M125 571q2 117 10 194t33 172t82 144t145 49q92 0 144 -57l30 -33v72h144v-1112h-146v88l-24 -27q-57 -70 -156 -79q-88 -10 -146.5 42t-82 152t-29.5 190.5t-4 204.5zM270 578q-2 -115 3.5 -196t21.5 -150.5t49 -102.5t84 -31q45 2 77 39t46 82t22.5 121t8.5 122v122 q-2 55 -1 113.5t-7.5 114.5t-22.5 101t-47 74t-80 29t-79 -40t-47 -117t-19.5 -134t-8.5 -147zM319 1333l236 297l137 -106l-282 -252z" />
<glyph unicode="&#xe2;" d="M100 571q2 117 10.5 194t33 172t82 144t145.5 49t143 -57l31 -33v72h143v-1112h-145v88l-25 -27q-57 -70 -156 -79q-88 -10 -146 42t-81.5 152t-30 190.5t-4.5 204.5zM154 1366l268 258l278 -258l-96 -96l-182 166l-178 -164zM246 578q-2 -115 3 -196t21.5 -150.5 t49 -102.5t83.5 -31q55 4 90 54.5t46.5 124t15.5 156.5t0 151q0 39 1 80t-2 82.5t-8 80.5t-16.5 74t-27 59.5t-42 40t-61.5 15.5q-47 0 -78.5 -40t-47 -117t-19.5 -134t-8 -147z" />
<glyph unicode="&#xe3;" d="M78 571q2 76 5 126.5t12 124t27.5 121.5t47.5 95t75 69.5t105 22.5q88 0 144 -57l30 -33v72h144v-1112h-146v88l-24 -27q-57 -70 -156 -79q-88 -10 -146.5 42t-82 151t-30.5 191.5t-5 204.5zM113 1323l16 23q66 98 141 104q53 6 148.5 -36t134.5 -40q27 2 53.5 25.5 t36.5 40.5l14 20l50 -51l-25 -33q-63 -80 -129 -84q-53 -2 -140 36t-132 38q-37 0 -61.5 -25.5t-43.5 -52.5l-16 -14zM225 578q-2 -115 3 -196t20.5 -150.5t49.5 -102.5t85 -31q55 4 90 54.5t46 124t15.5 156.5t0.5 151q-2 55 -1 113.5t-7.5 114.5t-21.5 101t-46 74t-80 29 q-39 0 -67.5 -31t-44 -69.5t-25 -108.5t-12.5 -113t-5 -116z" />
<glyph unicode="&#xe4;" horiz-adv-x="784" d="M98 571q2 117 10.5 194t33 172t82 144t145.5 49t143 -57l31 -33v72h143v-1112h-145v88l-25 -27q-57 -70 -156 -79q-88 -10 -146 42t-81.5 152t-30 190.5t-4.5 204.5zM143 1378q0 45 33 79t76 34q45 0 76.5 -31t33.5 -76q2 -47 -31.5 -81.5t-78.5 -34.5q-43 2 -75 33.5 t-34 76.5zM244 578q-2 -115 3 -196t21.5 -150.5t49 -102.5t83.5 -31q45 2 77 39t46.5 82t22.5 121t8 122v122q-2 55 -1 113.5t-7 114.5t-22.5 101t-47.5 74t-80 29t-78.5 -40t-47 -117t-19.5 -134t-8 -147zM510 1378q0 45 31.5 79t74.5 34q45 0 77 -31t34 -76 q4 -47 -29.5 -81.5t-79.5 -34.5q-45 2 -76.5 33.5t-31.5 76.5z" />
<glyph unicode="&#xe5;" horiz-adv-x="784" d="M127 571q2 117 10 194t33 172t82 144t145 49t144 -57l30 -33v72h144v-1112h-146v88l-24 -27q-57 -70 -156 -79q-88 -10 -146.5 42t-82 152t-29.5 190.5t-4 204.5zM272 578q-2 -115 3.5 -196t21.5 -150.5t49 -102.5t84 -31q45 2 77 39t46 82t22.5 121t8.5 122v122 q-2 55 -1 113.5t-7.5 114.5t-22.5 101t-47 74t-80 29t-79 -40t-47 -117t-19.5 -134t-8.5 -147zM320.5 1499q39.5 78 136.5 78q74 0 114.5 -49t40.5 -106.5t-40.5 -106.5t-114.5 -49q-96 0 -136 77.5t-0.5 155.5zM378 1379q24 -46 79 -46q57 0 80.5 46t0 91.5t-80.5 45.5 q-55 0 -79 -45.5t0 -91.5z" />
<glyph unicode="&#xe6;" horiz-adv-x="1265" d="M92 571q2 78 5 127.5t12.5 123t27 121.5t46 95t74.5 69.5t105 22.5q92 0 144 -57l31 -33v72h143v-74q70 86 184 86q82 0 143.5 -49t94.5 -132t47 -172t12 -185l-2 -68h-463v-20q0 -375 172 -387q63 -4 99.5 68.5t36.5 160.5v33h151l-2 -33q-8 -143 -73.5 -250.5 t-198.5 -112.5q-123 -6 -201 76v-53h-145v88l-25 -27q-55 -70 -154 -79q-72 -8 -124 27.5t-79.5 94t-42 145.5t-17.5 160.5t-1 161.5zM240 578q-2 -115 3 -196t20.5 -150.5t48 -102.5t83.5 -31q92 6 126 141.5t28 311.5q-2 55 -1 115.5t-7.5 123t-22.5 112.5t-47 82t-80 32 t-78.5 -40t-46 -116t-19.5 -136t-7 -146zM698 641h318l-4 47q-4 66 -9.5 103.5t-19.5 91t-43 79t-74 27.5q-70 4 -119 -102.5t-49 -212.5v-33z" />
<glyph unicode="&#xe7;" horiz-adv-x="677" d="M100 559q2 100 19.5 193.5t53.5 177.5t100.5 134t148.5 50q45 0 106 -20l54 -21v-170l-33 27q-57 45 -107 49q-51 4 -89 -34t-59.5 -103.5t-32.5 -133t-15 -143.5q-8 -203 49 -337t141 -128q72 8 123 78l16 19v-177l-20 -12q-63 -43 -139 -43q-92 2 -159 56.5 t-100.5 145.5t-47 188.5t-9.5 203.5zM233 -485l136 407l123 -57l-175 -391z" />
<glyph unicode="&#xe8;" horiz-adv-x="813" d="M100 555q0 102 15.5 196.5t49.5 181.5t98.5 139t150.5 52q109 0 180.5 -88t96 -203.5t22.5 -246.5l-2 -68h-463v-20q0 -375 172 -387q63 -4 99 68.5t36 160.5v33h152l-2 -33q-8 -143 -74 -250.5t-199 -112.5q-332 -14 -332 578zM238 1524l135 106l235 -297l-88 -61z M250 641h317l-4 47q-4 66 -9 103.5t-19.5 91t-44 79t-74.5 27.5q-68 4 -117 -102.5t-49 -212.5v-33z" />
<glyph unicode="&#xe9;" horiz-adv-x="808" d="M100 555q0 102 15.5 196.5t49.5 181.5t98.5 139t150.5 52q109 0 180.5 -88t96 -203.5t22.5 -246.5l-2 -68h-463v-20q0 -375 172 -387q63 -4 99 68.5t36 160.5v33h152l-2 -33q-8 -143 -74 -250.5t-199 -112.5q-332 -14 -332 578zM250 641h317l-4 47q-4 66 -9 103.5 t-19.5 91t-44 79t-74.5 27.5q-68 4 -117 -102.5t-49 -212.5v-33zM283 1323l237 297l135 -107l-282 -251z" />
<glyph unicode="&#xea;" horiz-adv-x="802" d="M100 555q0 102 15.5 196.5t49.5 181.5t98.5 139t150.5 52q109 0 180.5 -88t96 -203.5t22.5 -246.5l-2 -68h-463v-20q0 -375 172 -387q63 -4 99 68.5t36 160.5v33h152l-2 -33q-8 -143 -74 -250.5t-199 -112.5q-332 -14 -332 578zM162 1366l268 258l279 -258l-97 -96 l-182 166l-178 -164zM250 641h317l-4 47q-4 66 -9 103.5t-19.5 91t-44 79t-74.5 27.5q-68 4 -117 -102.5t-49 -212.5v-33z" />
<glyph unicode="&#xeb;" horiz-adv-x="804" d="M100 555q0 102 15.5 196.5t49.5 181.5t98.5 139t150.5 52q109 0 180.5 -88t96 -203.5t22.5 -246.5l-2 -68h-463v-20q0 -375 172 -387q63 -4 99 68.5t36 160.5v33h152l-2 -33q-8 -143 -74 -250.5t-199 -112.5q-332 -14 -332 578zM135 1384q0 45 33 79t76 34 q45 0 76.5 -30.5t33.5 -75.5q2 -47 -31.5 -82t-78.5 -35q-43 2 -75 33.5t-34 76.5zM250 641h317l-4 47q-4 66 -9 103.5t-19.5 91t-44 79t-74.5 27.5q-68 4 -117 -102.5t-49 -212.5v-33zM502 1384.5q0 45.5 31.5 79t74.5 33.5q45 0 77 -30.5t34 -75.5q4 -47 -30 -82t-79 -35 q-45 2 -76.5 33.5t-31.5 77z" />
<glyph unicode="&#xec;" horiz-adv-x="507" d="M39 1524l135 106l238 -297l-90 -61zM178 0v1114h144v-1114h-144z" />
<glyph unicode="&#xed;" horiz-adv-x="518" d="M90 1333l238 297l135 -106l-283 -252zM186 0v1114h144v-1114h-144z" />
<glyph unicode="&#xee;" horiz-adv-x="509" d="M-8 1366l270 258l279 -258l-99 -96l-180 166l-178 -164zM182 0v1114h144v-1114h-144z" />
<glyph unicode="&#xef;" horiz-adv-x="501" d="M-37 1380q0 43 33 78t76 35t75.5 -32t34.5 -77q2 -47 -31.5 -81.5t-78.5 -34.5q-43 2 -75 34.5t-34 77.5zM184 0v1114h144v-1114h-144zM330 1380q-2 43 30.5 78t75.5 35q45 0 77 -31.5t34 -77t-31 -81t-78 -35.5q-45 2 -76.5 34.5t-31.5 77.5z" />
<glyph unicode="&#xf1;" horiz-adv-x="772" d="M74 1323l18 23q63 96 146 106q51 6 148 -37t134 -41q39 2 92 68l15 20l49 -51l-25 -33q-61 -82 -131 -86q-53 -2 -141 37t-133 39q-39 0 -63.5 -26.5t-43.5 -53.5l-14 -16zM90 0v1112h143v-88l15 14q49 53 114 78q96 37 187 -2q37 -16 61.5 -47t35.5 -71t17.5 -87 t5.5 -96t-1 -98v-715h-142v715q2 29 0 78t-6 95t-27.5 85t-64.5 45q-100 18 -147.5 -67t-47.5 -222v-729h-143z" />
<glyph unicode="&#xf2;" horiz-adv-x="817" d="M90 555q0 106 14.5 199.5t46 181.5t98 140t159.5 52q315 0 319 -565q2 -84 -5 -159.5t-27.5 -155.5t-54.5 -137.5t-91 -94t-133 -39.5q-98 0 -166 51.5t-100.5 142.5t-46 183t-13.5 201zM238 549q4 -432 174 -434q51 -2 87 41t52 114.5t22.5 142t6.5 150.5 q-2 90 -7.5 145.5t-20.5 130t-51 113.5t-91 41q-49 2 -86 -39t-54.5 -111.5t-24.5 -143t-7 -150.5zM242 1524l135 106l235 -297l-88 -61z" />
<glyph unicode="&#xf3;" horiz-adv-x="815" d="M90 555q0 106 14.5 199.5t46 181.5t98 140t159.5 52q315 0 319 -565q2 -84 -5 -159.5t-27.5 -155.5t-54.5 -137.5t-91 -94t-133 -39.5q-98 0 -166 51.5t-100.5 142.5t-46 183t-13.5 201zM231 1333l238 297l135 -106l-282 -252zM238 549q4 -432 174 -434q51 -2 87 41 t52 114.5t22.5 142t6.5 150.5q-2 90 -7.5 145.5t-20.5 130t-51 113.5t-91 41q-49 2 -86 -39t-54.5 -111.5t-24.5 -143t-7 -150.5z" />
<glyph unicode="&#xf4;" horiz-adv-x="821" d="M90 555q0 106 14.5 199.5t46 181.5t98 140t159.5 52q315 0 319 -565q2 -84 -5 -159.5t-27.5 -155.5t-54.5 -137.5t-91 -94t-133 -39.5q-98 0 -166 51.5t-100.5 142.5t-46 183t-13.5 201zM154 1366l268 258l278 -258l-96 -96l-182 166l-178 -164zM238 549q4 -432 174 -434 q51 -2 87 41t52 114.5t22.5 142t6.5 150.5q-2 90 -7.5 145.5t-20.5 130t-51 113.5t-91 41q-49 2 -86 -39t-54.5 -111.5t-24.5 -143t-7 -150.5z" />
<glyph unicode="&#xf5;" horiz-adv-x="829" d="M100 555q0 106 14.5 199.5t46.5 181.5t98.5 140t158.5 52q98 0 165.5 -50t98.5 -141t43 -177t14 -197q2 -84 -5 -159.5t-27.5 -155.5t-54.5 -137.5t-91 -94t-133 -39.5q-80 0 -139.5 36t-94 92.5t-57 136.5t-30 154.5t-7.5 158.5zM129 1323l16 23q63 96 146 106 q51 6 147.5 -37t134.5 -41q29 2 61 30t34 36l12 22l49 -51l-24 -33q-61 -82 -132 -86q-53 -2 -141 37t-133 39q-37 0 -62.5 -26.5t-43.5 -53.5l-15 -16zM248 549q4 -432 174 -434q53 -2 89 40t52.5 114.5t21.5 143t5 150.5q-2 61 -3 95t-7.5 92.5t-17.5 93.5t-28.5 72.5 t-46 56t-67.5 20.5q-49 2 -86 -39t-54.5 -111.5t-24.5 -143t-7 -150.5z" />
<glyph unicode="&#xf6;" horiz-adv-x="815" d="M90 555q0 106 14.5 199.5t46 181.5t98 140t159.5 52q315 0 319 -565q2 -84 -5 -159.5t-27.5 -155.5t-54.5 -137.5t-91 -94t-133 -39.5q-98 0 -166 51.5t-100.5 142.5t-46 183t-13.5 201zM137 1382q0 45 33 79t76 34q45 0 76.5 -30.5t33.5 -75.5q2 -47 -31.5 -82 t-78.5 -35q-43 2 -75 33.5t-34 76.5zM238 549q4 -432 174 -434q51 -2 87 41t52 114.5t22.5 142t6.5 150.5q-2 90 -7.5 145.5t-20.5 130t-51 113.5t-91 41q-49 2 -86 -39t-54.5 -111.5t-24.5 -143t-7 -150.5zM504 1382q0 45 31.5 79t74.5 34q45 0 77 -30.5t34 -75.5 q4 -47 -30 -82t-79 -35q-45 2 -76.5 33.5t-31.5 76.5z" />
<glyph unicode="&#xf7;" horiz-adv-x="1114" d="M100 512v94h912v-94h-912zM469 276q0 41 28.5 72t67.5 31t69 -27.5t32 -66.5q2 -41 -28 -73t-71 -32q-39 0 -67.5 29t-30.5 67zM469 813q0 41 28.5 71.5t67.5 30.5t69 -27.5t32 -66.5q2 -41 -28 -72.5t-71 -31.5q-39 0 -67.5 28.5t-30.5 67.5z" />
<glyph unicode="&#xf8;" horiz-adv-x="925" d="M104 23l95 165q-51 137 -52 367q0 106 14.5 199.5t46.5 181.5t98.5 140t158.5 52q141 0 213 -102l65 113l82 -29l-98 -170q53 -125 57 -377q2 -84 -5 -159.5t-27.5 -155.5t-54 -137.5t-91 -94t-133.5 -39.5q-145 0 -227 119l-58 -102zM295 549q4 -123 8 -176l293 510 q-39 109 -129 110q-49 2 -86 -39t-54.5 -111.5t-24.5 -143t-7 -150.5zM332 244q41 -129 137 -129q51 -2 87 41t52.5 114.5t22.5 142t6 150.5q-4 133 -12 195z" />
<glyph unicode="&#xf9;" horiz-adv-x="772" d="M100 309v803h142v-713q0 -43 1 -65.5t4 -62.5t13 -62.5t24.5 -47t41 -35.5t61.5 -11q49 0 82 24.5t45 72.5t16.5 88t4.5 99v713h141v-807q0 -315 -279 -325q-297 -6 -297 329zM213 1524l135 106l236 -297l-88 -61z" />
<glyph unicode="&#xfa;" horiz-adv-x="772" d="M100 309v803h142v-713q0 -43 1 -65.5t4 -62.5t13 -62.5t24.5 -47t41 -35.5t61.5 -11q49 0 82 24.5t45 72.5t16.5 88t4.5 99v713h141v-807q0 -315 -279 -325q-297 -6 -297 329zM254 1333l238 297l135 -106l-283 -252z" />
<glyph unicode="&#xfb;" horiz-adv-x="763" d="M100 309v803h142v-713q0 -43 1 -65.5t4 -62.5t13 -62.5t24.5 -47t41 -35.5t61.5 -11q49 0 82 24.5t45 72.5t16.5 88t4.5 99v713h141v-807q0 -315 -279 -325q-297 -6 -297 329zM143 1366l269 258l278 -258l-96 -96l-182 166l-179 -164z" />
<glyph unicode="&#xfc;" horiz-adv-x="772" d="M100 309v803h142v-713q0 -43 1 -65.5t4 -62.5t13 -62.5t24.5 -47t41 -35.5t61.5 -11q49 0 82 24.5t45 72.5t16.5 88t4.5 99v713h141v-807q0 -315 -279 -325q-297 -6 -297 329zM115 1382q0 45 32.5 79t75.5 34q45 0 77 -30.5t34 -75.5q2 -47 -32 -82t-79 -35 q-43 2 -74.5 33.5t-33.5 76.5zM481 1382q0 45 32 79t75 34q45 0 76.5 -30.5t33.5 -75.5q4 -47 -29.5 -82t-78.5 -35q-45 2 -77 33.5t-32 76.5z" />
<glyph unicode="&#xff;" horiz-adv-x="804" d="M66 1112h143l197 -897l188 897h151l-389 -1532h-143l106 459zM121 1380q0 45 32.5 79t75.5 34q45 0 77 -31t34 -76q2 -47 -32 -81.5t-79 -34.5q-43 2 -74.5 33.5t-33.5 76.5zM487 1380q0 45 32 79t75 34q45 0 77 -31t34 -76q4 -47 -30 -81.5t-79 -34.5q-45 2 -77 33.5 t-32 76.5z" />
<glyph unicode="&#x152;" horiz-adv-x="1359" d="M92 823q0 121 8.5 224.5t33 221t66.5 198.5t117.5 134.5t176.5 53.5q150 0 243 -109v76h514v-145h-358v-559h344v-146h-344v-57v-578h352v-145h-508v94q-92 -109 -239 -109q-129 0 -215 77t-125 213t-52.5 265.5t-13.5 290.5zM254 695.5q0 -66.5 5 -134t12.5 -130 t25.5 -117t43 -95.5t64.5 -64.5t89 -23.5t89.5 24.5t65.5 60.5t43 98.5t26.5 112.5t13 132t5 130t1 128q0 104 -3 182t-17.5 181.5t-39 169t-71.5 112.5t-112 45q-49 0 -87 -25.5t-63 -61.5t-43 -96t-26.5 -113.5t-13.5 -131.5t-6 -129t-1 -127v-127.5z" />
<glyph unicode="&#x153;" horiz-adv-x="1302" d="M90 555q0 106 14.5 199.5t46 181.5t98 140t159.5 52q178 0 258 -176q80 172 237 172q109 0 180.5 -88t96 -203.5t22.5 -246.5l-2 -68h-463v-20q0 -76 6.5 -133.5t22.5 -119t52 -96t91 -38.5q63 -4 98 68.5t35 160.5v33h154l-2 -33q-6 -90 -30.5 -165t-87 -135t-154.5 -63 q-180 -8 -263 168q-80 -166 -243 -168q-98 0 -166 51.5t-100.5 142.5t-46 183t-13.5 201zM238 549q4 -432 174 -434q51 -2 87 41t52 114.5t22.5 142t6.5 150.5q-2 90 -7.5 145.5t-20.5 130t-51 113.5t-91 41q-49 2 -86 -39t-54.5 -111.5t-24.5 -143t-7 -150.5zM739 641h318 l-4 47q-6 72 -10.5 105.5t-18.5 88t-44 80t-75 27.5q-68 4 -117 -102.5t-49 -212.5v-33z" />
<glyph unicode="&#x178;" horiz-adv-x="905" d="M72 1630h166l219 -774l211 774h163l-296 -911l-3 -719h-151v713zM172 1851q0 45 33 79t76 34q45 0 76.5 -30.5t33.5 -75.5q2 -47 -31.5 -82t-78.5 -35q-43 2 -75 33.5t-34 76.5zM539 1851q0 45 31.5 79t74.5 34q45 0 77 -30.5t34 -75.5q4 -47 -30 -82t-79 -35 q-45 2 -76.5 33.5t-31.5 76.5z" />
<glyph unicode="&#x2000;" horiz-adv-x="1049" />
<glyph unicode="&#x2001;" horiz-adv-x="2099" />
<glyph unicode="&#x2002;" horiz-adv-x="1049" />
<glyph unicode="&#x2003;" horiz-adv-x="2099" />
<glyph unicode="&#x2004;" horiz-adv-x="699" />
<glyph unicode="&#x2005;" horiz-adv-x="524" />
<glyph unicode="&#x2006;" horiz-adv-x="349" />
<glyph unicode="&#x2007;" horiz-adv-x="349" />
<glyph unicode="&#x2008;" horiz-adv-x="262" />
<glyph unicode="&#x2009;" horiz-adv-x="419" />
<glyph unicode="&#x200a;" horiz-adv-x="116" />
<glyph unicode="&#x2010;" horiz-adv-x="753" d="M100 647v178h541v-178h-541z" />
<glyph unicode="&#x2011;" horiz-adv-x="753" d="M100 647v178h541v-178h-541z" />
<glyph unicode="&#x2012;" horiz-adv-x="753" d="M100 647v178h541v-178h-541z" />
<glyph unicode="&#x2013;" horiz-adv-x="1214" d="M100 647v178h1022v-178h-1022z" />
<glyph unicode="&#x2014;" horiz-adv-x="1632" d="M106 647v178h1426v-178h-1426z" />
<glyph unicode="&#x2018;" horiz-adv-x="503" d="M98 1153l211 479l107 -53l-166 -498z" />
<glyph unicode="&#x2019;" horiz-adv-x="522" d="M106 1143l166 497l154 -71l-213 -475z" />
<glyph unicode="&#x201a;" horiz-adv-x="522" d="M106 -252l166 498l154 -72l-213 -475z" />
<glyph unicode="&#x201c;" horiz-adv-x="811" d="M98 1153l211 479l107 -53l-166 -498zM385 1153l213 479l109 -53l-166 -498z" />
<glyph unicode="&#x201d;" horiz-adv-x="811" d="M100 1143l166 497l152 -71l-211 -475zM387 1143l168 497l152 -71l-211 -475z" />
<glyph unicode="&#x201e;" horiz-adv-x="811" d="M100 -252l166 498l152 -72l-211 -475zM387 -252l168 498l152 -72l-211 -475z" />
<glyph unicode="&#x2022;" horiz-adv-x="589" d="M98 844q0 76 54.5 139.5t150.5 63.5t150.5 -63.5t54.5 -139.5t-54.5 -139.5t-150.5 -63.5t-150.5 63.5t-54.5 139.5z" />
<glyph unicode="&#x2026;" horiz-adv-x="1107" d="M70 104.5q0 45.5 31.5 79t72.5 33.5q45 0 77 -29.5t34 -74.5q4 -47 -30 -84t-79 -35q-45 0 -75.5 32.5t-30.5 78zM440 104.5q0 45.5 33 79t74 33.5q45 0 76.5 -29.5t33.5 -74.5q4 -47 -29.5 -84t-78.5 -35q-45 0 -77 32.5t-32 78zM825 104.5q0 45.5 32 79t73 33.5 q45 0 76.5 -29.5t33.5 -74.5q4 -47 -29.5 -84t-78.5 -35q-45 0 -76 32.5t-31 78z" />
<glyph unicode="&#x202f;" horiz-adv-x="419" />
<glyph unicode="&#x205f;" horiz-adv-x="524" />
<glyph unicode="&#x2122;" horiz-adv-x="1566" d="M96 1569v67h574v-67h-250v-731h-76v731h-248zM729 838v792h121l250 -698l258 698l115 -2v-790h-76v704l-264 -704h-70l-254 706v-706h-80z" />
<glyph unicode="&#x25fc;" horiz-adv-x="1116" d="M0 0v1116h1116v-1116h-1116z" />
</font>
</defs>
</svg>
